Listado completo de pelis de estreno | RuPaul's Drag Race - Season 5 | махеш бабу песни Mp3

+ ShareSpark.net »  :::: Hollywood Zone » TV Shows » Documentary
|- Underwater Universe of the Orda Cave (2018) - HD [720p]


100% Recharge Offer

Underwater Universe of the Orda Cave (2018) - HD [720p]

0 Members and 1 Guest are viewing this topic.

September 11, 2018, 02:21:24 PM
  • Team SSX
  • Special Member
  • ***
  • Topic Author
  • Thank You: 122
  • Reputation: 19
  • Activity:
    18.2%
  • Country: pk
  • Posts: 722
  • Topics: 494
  • Join Date: Nov 2012
  • Upgrade My Reputation







Release Info:
Code: [Select]
Complete name                            : NHK.Documentary.Underwater.Universe.of.the.Orda.Cave.2018.HD.720p.By.Rj.Rabasha.mp4
Format                                   : MPEG-4
Format profile                           : Base Media / Version 2
Codec ID                                 : mp42 (isom/mp42)
File size                                : 322 MiB
Duration                                 : 48 min 59 s
Overall bit rate mode                    : Variable
Overall bit rate                         : 917 kb/s
Encoded date                             : UTC 2018-05-12 16:14:54
Tagged date                              : UTC 2018-05-12 16:14:54
gsst                                     : 0
gstd                                     : 2940017

Video
ID                                       : 1
Format                                   : AVC
Format/Info                              : Advanced Video Codec
Format profile                           : [email protected]
Format settings                          : CABAC / 3 Ref Frames
Format settings, CABAC                   : Yes
Format settings, ReFrames                : 3 frames
Codec ID                                 : avc1
Codec ID/Info                            : Advanced Video Coding
Duration                                 : 48 min 59 s
Bit rate                                 : 820 kb/s
Width                                    : 1 280 pixels
Height                                   : 720 pixels
Display aspect ratio                     : 16:9
Frame rate mode                          : Constant
Frame rate                               : 25.000 FPS
Color space                              : YUV
Chroma subsampling                       : 4:2:0
Bit depth                                : 8 bits
Scan type                                : Progressive
Bits/(Pixel*Frame)                       : 0.036
Stream size                              : 287 MiB (89%)
Encoded date                             : UTC 2018-05-12 16:14:54
Tagged date                              : UTC 2018-05-12 16:14:54
Color range                              : Limited
Color primaries                          : BT.709
Transfer characteristics                 : BT.709
Matrix coefficients                      : BT.709

Audio
ID                                       : 2
Format                                   : AAC
Format/Info                              : Advanced Audio Codec
Format profile                           : LC
Codec ID                                 : mp4a-40-2
Duration                                 : 48 min 59 s
Bit rate mode                            : Variable
Bit rate                                 : 93.6 kb/s
Channel(s)                               : 1 channel
Channel positions                        : Front: C
Sampling rate                            : 44.1 kHz
Frame rate                               : 43.066 FPS (1024 SPF)
Compression mode                         : Lossy
Stream size                              : 32.8 MiB (10%)
Language                                 : English
Encoded date                             : UTC 2018-05-12 16:14:54
Tagged date                              : UTC 2018-05-12 16:14:54





















Code: [Select]
http://openload.co/f/YdkH5vnHbgA



Code: [Select]
http://uptobox.com/nccjdc9l5y0p




Code: [Select]
http://vidoza.net/i627a8mvnc5h.html







Share this topic on FacebookShare this topic on GoogleShare this topic on MySpaceShare this topic on TwitterShare this topic on Yahoo

« Last Edit: September 11, 2018, 02:26:23 PM by Rabasha »



Tags:
 

Related Topics

  Subject / Started by Replies Last post
0 Replies
885 Views
Last post May 24, 2012, 10:54:17 AM
by мя.иαωαz мυgнαl
0 Replies
178 Views
Last post August 29, 2018, 11:17:05 PM
by adteam
0 Replies
215 Views
Last post August 29, 2018, 11:46:40 PM
by adteam
0 Replies
216 Views
Last post September 04, 2018, 03:00:09 AM
by adteam
0 Replies
96 Views
Last post September 19, 2018, 03:06:27 AM
by adteam




Back to top