Kodi/XBMC and other plugins | Anti VĂ­rus | HD 720p The Angry Birds Movie

+ ShareSpark.net »  :::: Dubbed Zone (Dubbed English in Hindi) » English Movies Dubbed in Hindi » Animation Movies
|- The Wizard Of Oz 2011 x264 720p Esub BluRay Dual Audio English Hindi GOPISAHI


10% SBI and 10% Discount

The Wizard Of Oz 2011 x264 720p Esub BluRay Dual Audio English Hindi GOPISAHI

0 Members and 1 Guest are viewing this topic.

October 03, 2018, 04:26:59 PM
  • Legend Member
  • ****
  • Topic Author
  • Thank You: 1316
  • Reputation: 510
  • Activity:
    100%
  • Country: pk
  • Posts: 1553
  • Topics: 865
  • Join Date: Mar 2015
  • ShareSpark Member
The Wizard Of Oz 2011 x264 720p Esub BluRay Dual Audio English Hindi GOPISAHI






Format : Matroska

Format version : Version 4 / Version 2

File size : 421 MiB

Duration : 59 min 13 s

Overall bit rate : 994 kb/s

Movie name : The Wizard Of Oz 2011 GOPISAHI


Video

Format : AVC

Format/Info : Advanced Video Codec

Codec ID : V_MPEG4/ISO/AVC

Duration : 59 min 12 s

Bit rate : 799 kb/s

Width : 1 280 pixels

Height : 720 pixels

Display aspect ratio : 16:9

Frame rate mode : Constant

Frame rate : 23.976 (24000/1001) FPS

Color space : YUV

Chroma subsampling : 4:2:0

Bit depth : 8 bits

Scan type : Progressive

Bits/(Pixel*Frame) : 0.036

Stream size : 338 MiB (80%)

Title : GOPISAHI

Writing library : x264 core 155 r2901 7d0ff22


Audio #1

Format : AAC

Format/Info : Advanced Audio Codec

Duration : 59 min 13 s

Bit rate : 96.0 kb/s

Channel(s) : 2 channels

Channel positions : Front: L R

Sampling rate : 48.0 kHz

Frame rate : 46.875 FPS (1024 SPF)

Compression mode : Lossy

Delay relative to video : -21 ms

Stream size : 40.8 MiB (10%)

Title : GOPISAHI

Language : Hindi


Audio #2

Format : AAC

Duration : 59 min 13 s

Bit rate : 96.0 kb/s

Channel(s) : 2 channels

Channel positions : Front: L R

Sampling rate : 48.0 kHz

Frame rate : 46.875 FPS (1024 SPF)

Compression mode : Lossy

Delay relative to video : -21 ms

Stream size : 40.6 MiB (10%)

Title : GOPISAHI

Language : English


Text

Language : English





 :ss:










 :download:


























Share this topic on FacebookShare this topic on GoogleShare this topic on MySpaceShare this topic on TwitterShare this topic on Yahoo



Thanks given by:


October 06, 2018, 01:15:44 AM
Reply #1
  • Special Member
  • ****
  • Thank You: 1
  • Reputation: 1
  • Activity:
    4.4%
  • Posts: 847
  • Topics: 2
  • Join Date: Apr 2012
  • ShareSpark Member

Tags:
 

Related Topics

  Subject / Started by Replies Last post
0 Replies
569 Views
Last post November 08, 2017, 09:51:34 AM
by jattsahi2
0 Replies
564 Views
Last post November 15, 2017, 04:34:40 PM
by jattsahi2
0 Replies
501 Views
Last post January 02, 2018, 08:32:29 AM
by jattsahi2
0 Replies
379 Views
Last post March 13, 2018, 04:37:10 PM
by jattsahi2
3 Replies
342 Views
Last post September 11, 2018, 02:10:58 PM
by PRITTS




Back to top